[选老顶].The.Mobfathers.2016.BD.2Audio.MiniSD-TLF【豆瓣已禁此港片条目】


总分0.0
  • 评分:0人参与评分
  • 分级: 资源
  • 类型:
  • 格式:[MKV]
  • 发行时间:2016年
  • 地区/语言:香港(粤语)
  • 统计:3216次 浏览
  • 时间:2017-04-18 12:31:23发布 | 2017-04-18 12:31:23更新

电骡资源

简介

http://www.imdb.com/title/tt5609302/


http://hkmdb.com/db/movies/view.mhtml?id=17559&complete_credits=1&display_set=big5



【BT磁力】

magnet:?xt=urn:btih:4a70a9522d993d64f571805388bf50f13244ea97


(注:此电影资源在软件emule电骡里搜到的)



選老坐 (2016) 
The Mobfathers
  

 

Alias: 選老頂 /  堂口風雲錄 (台)


地區: 香港  
語言: 粵語   
片種: 警匪    
Release Date: 03/31/2016  
 
導演 
  邱禮濤 
  
編劇
  李敏 
  李氏力場 
 
演員
  杜汶澤     
  黃秋生     
  王宗堯     
  姜皓文     
  冼色麗     
  陳家樂   
  夏韶聲     
  李龍基     
  張武孝     
  洪卓立     
  吳浩康     
  黃德斌     
  何華超     
  湯怡     
  趙碩之     
  凌梓維     
  陳意嵐     
  布偉傑     
  林偉    
  蒙為亮     
  黃集鋒     
  陳翀     
  劉皓嵐     
  許思敏     
  馮海銳     
  Singh Hartihan Bitto     
  泰仔     
  王貝兒     
  蔡國平     
  陳俐寧     
  羅頌欣     
  陳華 
  計祥龍     
  李生衍     
  何國男     
  羅正圓     
  宋宛穎     
  李綺雯     
  衚丹瑛     
  麥玲玲     
  黃華      
 

剧情:
       「选老顶」一词在香港黑社会中意指「选举黑社会老大」,杜文泽在片中饰演要求「公投选龙头」的黑道分子,掀起黑社会政治革命,颇有「借黑讽今」的意味。兼具刺激动作场面与幽默讽刺,对白字字珠玑、刀刀见血!


      三年一度「话事人」(帮会共主)选举临近,帮内各堂口展开恶斗。元老们为维持自身利益,早已内定唯唯诺诺的候选人,投票本应只是例行程序;未料变数接二连三,恶斗愈演愈烈。继《雏妓》后,杜汶泽再度与邱礼涛合作,黄秋生饰演大权在握的老大哥;香港后九七黑帮电影大多挟带政治寓意,而本片的政治指涉又较同类作品更为直白。

http://app2.atmovies.com.tw/film/ftcn35609302/



【截图】  http://pic.yupoo.com/appcht/GmQQ4RXm/fCnMr.jpg


General
Unique ID                      : 183565477926434353932203995764120859451 (0x8A196CD159993FD2A279B71BD4CBB33B)
Complete name                  :[选老顶].The.Mobfathers.2016.BD.2Audio.MiniSD-TLF.mkv
Format                         : Matroska
Format version                 : Version 4 / Version 2
File size                      : 982 MiB
Duration                       : 1 h 32 min
Overall bit rate               : 1 479 kb/s
Encoded date                   : UTC 2017-03-18 15:16:15
Writing application            : mkvmerge v7.3.0 ('Nouages') 32bit built on Oct 22 2014 18:44:01
Writing library                : libebml v1.3.0 + libmatroska v1.4.1

Video
ID                             : 1
Format                         : AVC
Format/Info                    : Advanced Video Codec
Format profile                 : High@L3.1
Format settings, CABAC         : Yes
Format settings, ReFrames      : 8 frames
Codec ID                       : V_MPEG4/ISO/AVC
Duration                       : 1 h 32 min
Bit rate                       : 1 274 kb/s
Width                          : 854 pixels
Height                         : 362 pixels
Display aspect ratio           : 2.35:1
Frame rate mode                : Constant
Frame rate                     : 24.000 FPS
Color space                    : YUV
Chroma subsampling             : 4:2:0
Bit depth                      : 8 bits
Scan type                      : Progressive
Bits/(Pixel*Frame)             : 0.172
Stream size                    : 846 MiB (86%)
Title                          : 720p-WiKi
Writing library                : x264 core 148 r2744 b97ae06
Encoding settings              : cabac=1 / ref=8 / deblock=1:-2:-4 / analyse=0x3:0x113 / me=umh / subme=9 / psy=1 / psy_rd=0.80:0.15 / mixed_ref=1 / me_range=16 / chroma_me=1 / trellis=1 / 8x8dct=1 / cqm=0 / deadzone=21,11 / fast_pskip=1 / chroma_qp_offset=-3 / threads=6 / lookahead_threads=1 / sliced_threads=0 / nr=0 / decimate=1 / interlaced=0 / bluray_compat=0 / constrained_intra=0 / bframes=10 / b_pyramid=2 / b_adapt=1 / b_bias=0 / direct=1 / weightb=1 / open_gop=0 / weightp=2 / keyint=240 / keyint_min=24 / scenecut=40 / intra_refresh=0 / rc=crf / mbtree=0 / crf=21.2 / qcomp=0.60 / qpmin=0 / qpmax=69 / qpstep=4 / ip_ratio=1.40 / pb_ratio=1.30 / aq=1:1.00
Language                       : Chinese
Default                        : Yes
Forced                         : No
Color range                    : Limited
Matrix coefficients            : BT.709

Audio #1
ID                             : 2
Format                         : AAC
Format/Info                    : Advanced Audio Codec
Format profile                 : LC
Codec ID                       : A_AAC
Duration                       : 1 h 32 min
Bit rate                       : 96.0 kb/s
Channel(s)                     : 2 channels
Channel positions              : Front: L R
Sampling rate                  : 48.0 kHz
Frame rate                     : 46.875 FPS (1024 spf)
Compression mode               : Lossy
Delay relative to video        : 20 ms
Stream size                    : 62.8 MiB (6%)
Title                          : 粤语
Language                       : Chinese
Default                        : Yes
Forced                         : No

Audio #2
ID                             : 3
Format                         : AAC
Format/Info                    : Advanced Audio Codec
Format profile                 : LC
Codec ID                       : A_AAC
Duration                       : 1 h 32 min
Bit rate                       : 106 kb/s
Channel(s)                     : 2 channels
Channel positions              : Front: L R
Sampling rate                  : 48.0 kHz
Frame rate                     : 46.875 FPS (1024 spf)
Compression mode               : Lossy
Delay relative to video        : 20 ms
Stream size                    : 70.7 MiB (7%)
Title                          : 国语
Language                       : Chinese
Default                        : No
Forced                         : No

Text #1
ID                             : 4
Format                         : UTF-8
Codec ID                       : S_TEXT/UTF8
Codec ID/Info                  : UTF-8 Plain Text
Duration                       : 1 h 30 min
Bit rate                       : 56 b/s
Count of elements              : 1432
Stream size                    : 37.0 KiB (0%)
Title                          : CHS
Language                       : Chinese
Default                        : Yes
Forced                         : No

Text #2
ID                             : 5
Format                         : UTF-8
Codec ID                       : S_TEXT/UTF8
Codec ID/Info                  : UTF-8 Plain Text
Duration                       : 1 h 30 min
Bit rate                       : 56 b/s
Count of elements              : 1432
Stream size                    : 36.9 KiB (0%)
Title                          : CHT
Language                       : Chinese
Default                        : No
Forced                         : No




楼主最新资源

资源评论

我要评论

资源评分: 很好 不错 一般 较差 很差
  • 小贴士:

  • 1. 类似“顶”、“沙发”之类没有营养的文字,对勤劳贡献的楼主来说是令人沮丧的反馈信息。
  • 2. 提问之前请再仔细看一遍楼主的说明,或许是您遗漏了。
  • 3. 勿催片。请相信骡友们对分享是富有激情的,如果确有更新版本,您一定能搜索到。
  • 4. 请勿到处挖坑绊人、招贴广告。即占空间让人厌烦,又没人会搭理,于人于己都无利。
  • 如果您发现自己的评论不见了,请参考以上4条。

推荐资源

  • [MKV] 阿姨 My Aunt 2016 全版
点击复制本页面地址给QQ/MSN/Gtalk好友

楼主信息...
更多
你可能喜欢的
关于我们 / 人才招募 / 商务合作 / 版权声明 / / 快手排行榜
分享资源 | 请在遵循创作共用的约定下使用本站内容
©2006-2012 QvoCD.ORG Inc. All rights Reserved.