雨中一只蜂 Uma.Abelha.na.Chuva.1972.APH.DVDRip.x264-MaZ


总分0.0
  • 评分:0人参与评分
  • 分级: 资源
  • 类型:
  • 格式:[MKV]
  • 发行时间:1972年
  • 地区/语言:葡萄牙(其他)
  • 统计:1407次 浏览
  • 时间:2017-01-15 15:59:53发布 | 2017-01-15 15:59:53更新

电骡资源

简介

http://www.imdb.com/title/tt0066739/        (6.8/10 from 176 users) 



【片源 BT磁力】

magnet:?xt=urn:btih:899ba702828f9163e3802528bca58798080fea4d&dn=Uma.Abelha.na.Chuva.1972.APH.DVDRip.x264-MaZ.mkv - 1002.52 MB


【中字】http://www.subom.net/sinfo/219783



雨中一只蜂 Uma Abelha na Chuva (1972)


导演: 费尔南多·洛佩斯
编剧: Carlos D'Oliveira / 费尔南多·洛佩斯
主演: 劳拉·索维拉尔 / 若热·盖德斯 / Zita Duarte / Ruy Furtado / Carlos Ferreiro
类型: 剧情
制片国家/地区: 葡萄牙
语言: 葡萄牙语
上映日期: 1972-04-13
片长: 75 分钟
又名: A Bee in the Rain



【截图】http://pic.yupoo.com/appcht/G9u87Pva/LDZBI.jpg



General
Unique ID                      : 204873051994705050399732419885788506414 (0x9A211D5407EC6974BDCCA912BFF7292E)
Complete name                  :Uma.Abelha.na.Chuva.1972.APH.DVDRip.x264-MaZ.mkv
Format                         : Matroska
Format version                 : Version 4 / Version 2
File size                      : 1 003 MiB
Duration                       : 1h 5mn
Overall bit rate               : 2 128 Kbps
Encoded date                   : UTC 2016-05-24 14:22:40
Writing application            : mkvmerge v9.0.0 ('Power to progress') 64bit
Writing library                : libebml v1.3.3 + libmatroska v1.4.4
DURATION                       : 01:05:00.549000000
NUMBER_OF_FRAMES               : 392
NUMBER_OF_BYTES                : 429553
_STATISTICS_WRITING_APP        : mkvmerge v9.0.0 ('Power to progress') 64bit
_STATISTICS_WRITING_DATE_UTC   : 2016-05-24 14:22:40
_STATISTICS_TAGS               : BPS DURATION NUMBER_OF_FRAMES NUMBER_OF_BYTES

Video
ID                             : 1
Format                         : AVC
Format/Info                    : Advanced Video Codec
Format profile                 : High@L4.1
Format settings, CABAC         : Yes
Format settings, ReFrames      : 8 frames
Codec ID                       : V_MPEG4/ISO/AVC
Duration                       : 1h 5mn
Bit rate                       : 1 934 Kbps
Width                          : 708 pixels
Height                         : 570 pixels
Display aspect ratio           : 4:3
Frame rate mode                : Constant
Frame rate                     : 24.000 fps
Color space                    : YUV
Chroma subsampling             : 4:2:0
Bit depth                      : 8 bits
Scan type                      : Progressive
Bits/(Pixel*Frame)             : 0.200
Stream size                    : 892 MiB (89%)
Writing library                : x264 core 148 r2665 a01e339
Encoding settings              : cabac=1 / ref=8 / deblock=1:-3:-3 / analyse=0x3:0x133 / me=umh / subme=9 / psy=1 / psy_rd=1.00:0.15 / mixed_ref=1 / me_range=28 / chroma_me=0 / trellis=2 / 8x8dct=1 / cqm=0 / deadzone=21,11 / fast_pskip=0 / chroma_qp_offset=-3 / threads=12 / lookahead_threads=3 / sliced_threads=0 / nr=0 / decimate=0 / interlaced=0 / bluray_compat=0 / constrained_intra=0 / bframes=16 / b_pyramid=2 / b_adapt=2 / b_bias=0 / direct=3 / weightb=1 / open_gop=0 / weightp=2 / keyint=240 / keyint_min=24 / scenecut=40 / intra_refresh=0 / rc_lookahead=60 / rc=2pass / mbtree=1 / bitrate=1934 / ratetol=3.0 / qcomp=0.60 / qpmin=0 / qpmax=69 / qpstep=4 / cplxblur=20.0 / qblur=0.5 / vbv_maxrate=14000 / vbv_bufsize=14000 / nal_hrd=none / filler=0 / ip_ratio=1.40 / aq=1:1.00
Default                        : Yes
Forced                         : No

Audio
ID                             : 2
Format                         : AC-3
Format/Info                    : Audio Coding 3
Mode extension                 : CM (complete main)
Format settings, Endianness    : Big
Codec ID                       : A_AC3
Duration                       : 1h 5mn
Bit rate mode                  : Constant
Bit rate                       : 192 Kbps
Channel(s)                     : 2 channels
Channel positions              : Front: L R
Sampling rate                  : 48.0 KHz
Compression mode               : Lossy
Stream size                    : 90.4 MiB (9%)
Language                       : Portuguese
Default                        : Yes
Forced                         : No

Text #1
ID                             : 3
Format                         : VobSub
Muxing mode                    : zlib
Codec ID                       : S_VOBSUB
Codec ID/Info                  : Picture based subtitle format used on DVDs
Language                       : Portuguese
Default                        : Yes
Forced                         : No

Text #2
ID                             : 4
Format                         : VobSub
Muxing mode                    : zlib
Codec ID                       : S_VOBSUB
Codec ID/Info                  : Picture based subtitle format used on DVDs
Language                       : English
Default                        : No
Forced                         : No

Text #3
ID                             : 5
Format                         : VobSub
Muxing mode                    : zlib
Codec ID                       : S_VOBSUB
Codec ID/Info                  : Picture based subtitle format used on DVDs
Language                       : French
Default                        : No
Forced                         : No



楼主最新资源

资源评论

我要评论

资源评分: 很好 不错 一般 较差 很差
  • 小贴士:

  • 1. 类似“顶”、“沙发”之类没有营养的文字,对勤劳贡献的楼主来说是令人沮丧的反馈信息。
  • 2. 提问之前请再仔细看一遍楼主的说明,或许是您遗漏了。
  • 3. 勿催片。请相信骡友们对分享是富有激情的,如果确有更新版本,您一定能搜索到。
  • 4. 请勿到处挖坑绊人、招贴广告。即占空间让人厌烦,又没人会搭理,于人于己都无利。
  • 如果您发现自己的评论不见了,请参考以上4条。

推荐资源

  • [MKV] 阿姨 My Aunt 2016 全版
点击复制本页面地址给QQ/MSN/Gtalk好友

楼主信息...
更多
你可能喜欢的
分享资源 | 请在遵循创作共用的约定下使用本站内容 |
©2007-2018 QvoCD.ORG 快手论坛 Inc. All rights Reserved.