英字《德拉库拉之夜/德古拉之夜》(Nachts, wenn Dracula erwacht)1970[AVI/700MB]


总分0.0
  • 评分:0人参与评分
  • 分级: 资源
  • 类型:
  • 格式:[AVI]
  • 发行时间:1970年
  • 地区/语言:西班牙(英语)
  • 统计:1200次 浏览
  • 时间:2017-01-15 14:06:33发布 | 2017-01-15 14:06:33更新

电骡资源

简介

http://www.imdb.com/title/tt0065569/     (5.8/10 from 1,901 users)



德古拉之夜 Nachts, wenn Dracula erwacht (1970)


导演: 赫苏斯·弗朗哥
编剧: Augusto Finocchi / 赫苏斯·弗朗哥
主演: 克里斯托弗·李 / 赫伯特·罗姆 / 克劳斯·金斯基 / 玛丽亚·罗姆
类型: 恐怖
制片国家/地区: 西班牙 / 西德 / 意大利 / 列支敦士登
语言: 英语
上映日期: 1970-04-03
片长: 98分钟
又名: 德古拉伯爵 / 德拉库拉之夜 / Count Dracula



【截图】http://pic.yupoo.com/appcht/G9trN3l4/jYHav.jpg



General
Complete name                  : 德拉库拉之夜 Nachts, wenn Dracula erwacht (1970).avi
Format                         : AVI
Format/Info                    : Audio Video Interleave
File size                      : 700 MiB
Duration                       : 1h 36mn
Overall bit rate               : 1 010 Kbps
Writing application            : VirtualDubMod 1.5.10.1 (build 2439/release)
Writing library                : VirtualDubMod build 2439/release

Video
ID                             : 0
Format                         : MPEG-4 Visual
Format profile                 : Advanced Simple@L5
Format settings, BVOP          : 2
Format settings, QPel          : No
Format settings, GMC           : No warppoints
Format settings, Matrix        : Default (H.263)
Codec ID                       : XVID
Codec ID/Hint                  : XviD
Duration                       : 1h 36mn
Bit rate                       : 808 Kbps
Width                          : 640 pixels
Height                         : 464 pixels
Display aspect ratio           : 1.379
Frame rate                     : 23.976 fps
Color space                    : YUV
Chroma subsampling             : 4:2:0
Bit depth                      : 8 bits
Scan type                      : Progressive
Compression mode               : Lossy
Bits/(Pixel*Frame)             : 0.113
Stream size                    : 560 MiB (80%)
Writing library                : XviD 1.0.3 (UTC 2004-12-20)

Audio
ID                             : 1
Format                         : AC-3
Format/Info                    : Audio Coding 3
Mode extension                 : CM (complete main)
Format settings, Endianness    : Big
Codec ID                       : 2000
Duration                       : 1h 36mn
Bit rate mode                  : Constant
Bit rate                       : 192 Kbps
Channel(s)                     : 2 channels
Channel positions              : Front: L R
Sampling rate                  : 48.0 KHz
Compression mode               : Lossy
Stream size                    : 133 MiB (19%)
Alignment                      : Split accross interleaves
Interleave, duration           : 42 ms (1.00 video frame)
Interleave, preload duration   : 500 ms



楼主最新资源

资源评论

我要评论

资源评分: 很好 不错 一般 较差 很差
  • 小贴士:

  • 1. 类似“顶”、“沙发”之类没有营养的文字,对勤劳贡献的楼主来说是令人沮丧的反馈信息。
  • 2. 提问之前请再仔细看一遍楼主的说明,或许是您遗漏了。
  • 3. 勿催片。请相信骡友们对分享是富有激情的,如果确有更新版本,您一定能搜索到。
  • 4. 请勿到处挖坑绊人、招贴广告。即占空间让人厌烦,又没人会搭理,于人于己都无利。
  • 如果您发现自己的评论不见了,请参考以上4条。

推荐资源

  • [MKV] 阿姨 My Aunt 2016 全版
点击复制本页面地址给QQ/MSN/Gtalk好友

楼主信息...
更多
你可能喜欢的
关于我们 / 人才招募 / 商务合作 / 版权声明 / / 快手排行榜
分享资源 | 请在遵循创作共用的约定下使用本站内容
©2006-2012 QvoCD.ORG Inc. All rights Reserved.