致命情挑(谁是凶手).Under.Suspicion.1991.BD.MiniSD-TLF


总分0.0
  • 评分:0人参与评分
  • 分级: 资源
  • 类型:
  • 格式:[MKV]
  • 发行时间:1991年
  • 地区/语言:英国(英语)
  • 统计:3452次 浏览
  • 时间:2017-01-14 21:34:57发布 | 2017-01-14 21:34:57更新

电骡资源

简介

http://www.imdb.com/title/tt0105691/     (6.5/10 from 2,596  users)



【BT磁力】 

magnet:?xt=urn:btih:2e59e53d5077f3aba1c5b90402133fd09b1700cd


【百度网盘】

英语内挂中字(TLF):http://pan.baidu.com/s/1qYnlv8C


国英双语:

http://pan.baidu.com/share/link?shareid=134917&uk=3761124926


【国语资源转自】http://peiyin.com/bbs/read.php?tid=107674



致命情挑 Under Suspicion (1991)


导演: 西蒙·摩尔
编剧: 西蒙·摩尔
主演: 连姆·尼森 / 劳拉·桑·吉亚科莫 / 肯尼思·库兰汉姆 / Maggie O'Neill
类型: 剧情 / 惊悚 / 犯罪
制片国家/地区: 英国
语言: 英语
上映日期: 1991-09-27
片长: 99 分钟
又名: 杀影迷离 /  谁是凶手(国内译名) / 一级通奸

剧情:

       ?汤尼亚伦多年前曾任警察,后因通奸而离职,改行作私家侦探,专为别人办理离婚案件的证信工作,重点是抓奸在床。为了工作顺利,汤尼甚至让他老婆跟客户演戏。这一次当他受去办理一位画家的离婚案时,仍派老婆如法炮制,不料老婆和画家皆遭别人谋杀,而他自己则变成了主要的嫌疑犯……



【截图】http://pic.yupoo.com/appcht/G9m3MdET/26pxG.jpg



General
Unique ID                      : 185224681345917951945379630441273367109 (0x8B58F9DCBBA7C521B39F0FD5878A1A45)
Complete name                  : 致命情挑(谁是凶手).Under.Suspicion.1991.BD.MiniSD-TLF\致命情挑.Under.Suspicion.1991.BD.MiniSD-TLF.mkv
Format                         : Matroska
Format version                 : Version 2
File size                      : 695 MiB
Duration                       : 1h 39mn
Overall bit rate               : 972 Kbps
Encoded date                   : UTC 2011-10-15 14:09:46
Writing application            : mkvmerge v5.0.1 ('Es ist Sommer') built on Oct  9 2011 11:55:43
Writing library                : libebml v1.2.2 + libmatroska v1.3.0

Video
ID                             : 1
Format                         : AVC
Format/Info                    : Advanced Video Codec
Format profile                 : High@L3.1
Format settings, CABAC         : Yes
Format settings, ReFrames      : 8 frames
Codec ID                       : V_MPEG4/ISO/AVC
Duration                       : 1h 39mn
Nominal bit rate               : 900 Kbps
Width                          : 848 pixels
Height                         : 356 pixels
Display aspect ratio           : 2.40:1
Frame rate mode                : Constant
Frame rate                     : 23.976 fps
Color space                    : YUV
Chroma subsampling             : 4:2:0
Bit depth                      : 8 bits
Scan type                      : Progressive
Bits/(Pixel*Frame)             : 0.124
Title                          : Under.Suspicion.1991.720p.BluRay.x264-PSYCHD
Writing library                : x264 core 118 r2085 8a62835
Encoding settings              : cabac=1 / ref=8 / deblock=1:-1:-1 / analyse=0x3:0x133 / me=umh / subme=9 / psy=1 / psy_rd=1.00:0.15 / mixed_ref=1 / me_range=16 / chroma_me=1 / trellis=2 / 8x8dct=1 / cqm=0 / deadzone=21,11 / fast_pskip=1 / chroma_qp_offset=-3 / threads=12 / sliced_threads=0 / nr=0 / decimate=1 / interlaced=0 / bluray_compat=0 / constrained_intra=0 / bframes=5 / b_pyramid=0 / b_adapt=2 / b_bias=0 / direct=3 / weightb=1 / open_gop=0 / weightp=2 / keyint=250 / keyint_min=23 / scenecut=40 / intra_refresh=0 / rc_lookahead=60 / rc=2pass / mbtree=1 / bitrate=900 / ratetol=1.0 / qcomp=0.60 / qpmin=10 / qpmax=51 / qpstep=4 / cplxblur=20.0 / qblur=0.5 / ip_ratio=1.40 / aq=1:1.00
Language                       : English
Default                        : Yes
Forced                         : No

Audio
ID                             : 2
Format                         : AAC
Format/Info                    : Advanced Audio Codec
Format profile                 : HE-AAC / LC
Codec ID                       : A_AAC
Duration                       : 1h 39mn
Channel(s)                     : 2 channels
Channel positions              : Front: L R
Sampling rate                  : 48.0 KHz / 24.0 KHz
Compression mode               : Lossy
Title                          : 英语
Language                       : English
Default                        : Yes
Forced                         : No

Text #1
ID                             : 3
Format                         : UTF-8
Codec ID                       : S_TEXT/UTF8
Codec ID/Info                  : UTF-8 Plain Text
Title                          : 简体中文
Language                       : Chinese
Default                        : Yes
Forced                         : No

Text #2
ID                             : 4
Format                         : UTF-8
Codec ID                       : S_TEXT/UTF8
Codec ID/Info                  : UTF-8 Plain Text
Title                          : 繁体中文
Language                       : Chinese
Default                        : No
Forced                         : No

Text #3
ID                             : 5
Format                         : UTF-8
Codec ID                       : S_TEXT/UTF8
Codec ID/Info                  : UTF-8 Plain Text
Title                          : 英文
Language                       : English
Default                        : No
Forced                         : No



【截图】 http://pic.yupoo.com/appcht/G9m3LV6r/xQcLQ.jpg



General
Unique ID                      : 185148763879754532678063765409420073249 (0x8B4A5AD798833D388D131BD6D2C8D921)
Complete name                  [英国剧情][致命情挑 Under Suspicion 谁是凶手(1991)][BD-MKV][国英双语无字][1.44G][1024x432][ttdown@中国配音网论坛].mkv
Format                         : Matroska
Format version                 : Version 4 / Version 2
File size                      : 1.45 GiB
Duration                       : 1h 39mn
Overall bit rate               : 2 072 Kbps
Encoded date                   : UTC 2010-02-22 21:41:31
Writing application            : mkvmerge v5.9.0 ('On The Loose') built on Dec  9 2012 15:37:01
Writing library                : libebml v1.3.0 + libmatroska v1.4.0

Video
ID                             : 1
Format                         : AVC
Format/Info                    : Advanced Video Codec
Format profile                 : High@L4.1
Format settings, CABAC         : Yes
Format settings, ReFrames      : 4 frames
Muxing mode                    : Header stripping
Codec ID                       : V_MPEG4/ISO/AVC
Duration                       : 1h 39mn
Bit rate                       : 1 688 Kbps
Width                          : 1 024 pixels
Height                         : 432 pixels
Display aspect ratio           : 2.40:1
Frame rate mode                : Constant
Frame rate                     : 23.976 fps
Color space                    : YUV
Chroma subsampling             : 4:2:0
Bit depth                      : 8 bits
Scan type                      : Progressive
Bits/(Pixel*Frame)             : 0.159
Stream size                    : 1.15 GiB (79%)
Writing library                : x264 core 125 r2208 d9d2288
Encoding settings              : cabac=1 / ref=3 / deblock=1:0:0 / analyse=0x3:0x113 / me=hex / subme=7 / psy=1 / psy_rd=1.00:0.00 / mixed_ref=1 / me_range=16 / chroma_me=1 / trellis=1 / 8x8dct=1 / cqm=0 / deadzone=21,11 / fast_pskip=1 / chroma_qp_offset=-2 / threads=3 / lookahead_threads=1 / sliced_threads=0 / nr=0 / decimate=1 / interlaced=0 / bluray_compat=0 / constrained_intra=0 / bframes=3 / b_pyramid=2 / b_adapt=1 / b_bias=0 / direct=1 / weightb=1 / open_gop=0 / weightp=2 / keyint=240 / keyint_min=23 / scenecut=40 / intra_refresh=0 / rc_lookahead=40 / rc=2pass / mbtree=1 / bitrate=1688 / ratetol=1.0 / qcomp=0.60 / qpmin=0 / qpmax=69 / qpstep=4 / cplxblur=20.0 / qblur=0.5 / ip_ratio=1.40 / aq=1:1.00
Default                        : Yes
Forced                         : No

Audio #1
ID                             : 2
Format                         : AC-3
Format/Info                    : Audio Coding 3
Mode extension                 : CM (complete main)
Format settings, Endianness    : Big
Muxing mode                    : Header stripping
Codec ID                       : A_AC3
Duration                       : 1h 39mn
Bit rate mode                  : Constant
Bit rate                       : 192 Kbps
Channel(s)                     : 2 channels
Channel positions              : Front: L R
Sampling rate                  : 48.0 KHz
Compression mode               : Lossy
Stream size                    : 137 MiB (9%)
Title                          : 上译国语配音
Language                       : Chinese
Default                        : Yes
Forced                         : No

Audio #2
ID                             : 3
Format                         : AC-3
Format/Info                    : Audio Coding 3
Mode extension                 : CM (complete main)
Format settings, Endianness    : Big
Muxing mode                    : Header stripping
Codec ID                       : A_AC3
Duration                       : 1h 39mn
Bit rate mode                  : Constant
Bit rate                       : 192 Kbps
Channel(s)                     : 2 channels
Channel positions              : Front: L R
Sampling rate                  : 48.0 KHz
Compression mode               : Lossy
Stream size                    : 137 MiB (9%)
Title                          : 英文原声
Language                       : English
Default                        : No
Forced                         : No




致命情挑.Under.Suspicion.1991.BD.MiniSD-TLF.mkv
File size: 694.77 MB
CRC32: b1a22b73
MD5: bc86e8960651e6c7914f51570f15bb47
SHA1: 7fd867d449789dcc6f2e7d8831d0ece2d6bccaff
ED2K: a9957684d1417d528ac671ad6fabf096



[英国剧情][致命情挑 Under Suspicion 谁是凶手(1991)][BD-MKV][国英双语无字][1.44G][1024x432][ttdown@中国配音网论坛].mkv
File size: 1.45 GB
CRC32: aeb7ad14
MD5: 5155cca4bef3271dab41d0befbc7cde8
SHA1: 45f5c9b374edd6a25999ddaa97ebcf1fd3fdcbf8
ED2K: 59bc8c55ee3de9b6d7c79f19214556c7


楼主最新资源

资源评论

我要评论

资源评分: 很好 不错 一般 较差 很差
  • 小贴士:

  • 1. 类似“顶”、“沙发”之类没有营养的文字,对勤劳贡献的楼主来说是令人沮丧的反馈信息。
  • 2. 提问之前请再仔细看一遍楼主的说明,或许是您遗漏了。
  • 3. 勿催片。请相信骡友们对分享是富有激情的,如果确有更新版本,您一定能搜索到。
  • 4. 请勿到处挖坑绊人、招贴广告。即占空间让人厌烦,又没人会搭理,于人于己都无利。
  • 如果您发现自己的评论不见了,请参考以上4条。

推荐资源

  • [MKV] 阿姨 My Aunt 2016 全版
点击复制本页面地址给QQ/MSN/Gtalk好友

楼主信息...
更多
你可能喜欢的
分享资源 | 请在遵循创作共用的约定下使用本站内容 |
©2007-2018 QvoCD.ORG 快手论坛 Inc. All rights Reserved.