[OTC-075]随她而去.Tatt.Av.Kvinnen.2007.DVDRip-AeroHut


总分0.0
  • 评分:0人参与评分
  • 分级: 资源
  • 类型:
  • 格式:[MKV]
  • 发行时间:2007年
  • 地区/语言:挪威(其他)
  • 统计:1709次 浏览
  • 时间:2017-01-14 20:51:16发布 | 2017-01-14 20:51:16更新

电骡资源

简介

http://www.imdb.com/title/tt0780621/       (6.6/10 from 1,834  users) 



【BT磁力】 

magnet:?xt=urn:btih:f50e2180c6d8980c8fcdd07db40ae3763bb2049f


【百度网盘】

https://pan.baidu.com/share/init?shareid=3717273215&uk=3292186106  提取密码:m1ke


【资源转自】

https://www.douban.com/group/topic/79515238/


http://weibo.com/aerohut



随她而去 Tatt av kvinnen (2007)


导演: Petter N?ss
编剧: Johan Bogaeus / Erlend Loe / 彼特·纳斯
主演: Peter Stormare / Trond Fausa Aurvaag / Anna Gutto
类型: 剧情 / 喜剧 / 爱情
制片国家/地区: 挪威
语言: 挪威语
上映日期: 2007-09-07
片长: 90 分钟
又名: 入侵 / Gone with the Woman
剧情:
   影片改编自挪威小说家、编剧埃伦·洛厄(Erlend Loe;1969年5月24日~)发表于1993年的同名小说。


   他(特龙·费于萨·艾于沃饰)过着无忧无虑的单身汉生活,直到玛丽安娜Marianne(玛丽安·索斯塔·奥特森饰)认为合适的时候入侵了他的生活。面对搬进他公寓的玛丽安娜以极大的热情倾其囊中所有,他不止是一点点无奈。也许从来就没有一个男人能够同时做到既了解又爱一个女人,这个健谈的女人让他目睹了什么是心血来潮和相信命运的不可预测。于是,情感的阵风在他的身旁兀变成迷恋女人的龙卷风,他感到是时最大的问题就是说服自己——为了生活、爱情和生命的意义,他应该离开他的跳水队,背起画板去或陪她周游世界......。


   被玛丽安娜入侵、诱惑和征服后的欧盟一连串旅行结束了,天真的他最终认识到,他有了自己的女朋友——美丽的巴黎女子米尔兰达Mirlinda(露易丝·莫诺饰)。他决定离开挪威去法国找她。对,刻不容缓!



【截图】http://pic.yupoo.com/appcht/G9lk8JtJ/usEd8.jpg



General
Unique ID                      : 216020396773876414096951258199262803622 (0xA28403DBEC832CF2A9A0E35610FCB6A6)
Complete name                  : [OTC-075]随她而去.Tatt.Av.Kvinnen.2007.DVDRip-AeroHut.mkv
Format                         : Matroska
Format version                 : Version 4 / Version 2
File size                      : 693 MiB
Duration                       : 1h 27mn
Overall bit rate mode          : Variable
Overall bit rate               : 1 108 Kbps
Encoded date                   : UTC 2015-09-23 16:48:34
Writing application            : mkvmerge v7.2.0 ('On Every Street') 32bit built on Sep 13 2014 15:42:11
Writing library                : libebml v1.3.0 + libmatroska v1.4.1
DURATION                       : 01:27:06.859000000
NUMBER_OF_FRAMES               : 739
NUMBER_OF_BYTES                : 29065
_STATISTICS_WRITING_APP        : mkvmerge v7.2.0 ('On Every Street') 32bit built on Sep 13 2014 15:42:11
_STATISTICS_WRITING_DATE_UTC   : 2015-09-23 16:48:34
_STATISTICS_TAGS               : BPS DURATION NUMBER_OF_FRAMES NUMBER_OF_BYTES

Video
ID                             : 2
Format                         : MPEG-4 Visual
Format profile                 : Advanced Simple@L5
Format settings, BVOP          : 2
Format settings, QPel          : No
Format settings, GMC           : No warppoints
Format settings, Matrix        : Default (H.263)
Muxing mode                    : Packed bitstream
Codec ID                       : V_MS/VFW/FOURCC / XVID
Codec ID/Hint                  : XviD
Duration                       : 1h 27mn
Bit rate                       : 958 Kbps
Width                          : 640 pixels
Height                         : 256 pixels
Display aspect ratio           : 2.500
Frame rate mode                : Constant
Frame rate                     : 25.000 fps
Color space                    : YUV
Chroma subsampling             : 4:2:0
Bit depth                      : 8 bits
Scan type                      : Progressive
Compression mode               : Lossy
Bits/(Pixel*Frame)             : 0.234
Stream size                    : 599 MiB (86%)
Writing library                : XviD 1.2.0.dev47 (UTC 2006-11-01)
Default                        : Yes
Forced                         : No

Audio
ID                             : 3
Format                         : MPEG Audio
Format version                 : Version 1
Format profile                 : Layer 3
Mode                           : Joint stereo
Mode extension                 : MS Stereo
Codec ID                       : A_MPEG/L3
Codec ID/Hint                  : MP3
Duration                       : 1h 28mn
Bit rate mode                  : Variable
Bit rate                       : 128 Kbps
Channel(s)                     : 2 channels
Sampling rate                  : 48.0 KHz
Compression mode               : Lossy
Stream size                    : 81.4 MiB (12%)
Writing library                : LAME3.90.
Encoding settings              : -m j -V 4 -q 2 -lowpass 17.6 --abr 128
Default                        : Yes
Forced                         : No

Text #1
ID                             : 1
Format                         : UTF-8
Codec ID                       : S_TEXT/UTF8
Codec ID/Info                  : UTF-8 Plain Text
Title                          : English
Default                        : Yes
Forced                         : No

Text #2
ID                             : 4
Format                         : UTF-8
Codec ID                       : S_TEXT/UTF8
Codec ID/Info                  : UTF-8 Plain Text
Title                          : Chinese
Default                        : No
Forced                         : No




[OTC-075]随她而去.Tatt.Av.Kvinnen.2007.DVDRip-AeroHut.mkv
File size: 693.35 MB
CRC32: 5419d8a4
MD5: 8dcc96792c6716fc87d91fd5e0a22efc
SHA1: fd1a575287ffaa3690e373deaeb1f7693446941e
ED2K: fef2d917369ff0a2873509dd09619c5b



楼主最新资源

资源评论

我要评论

资源评分: 很好 不错 一般 较差 很差
  • 小贴士:

  • 1. 类似“顶”、“沙发”之类没有营养的文字,对勤劳贡献的楼主来说是令人沮丧的反馈信息。
  • 2. 提问之前请再仔细看一遍楼主的说明,或许是您遗漏了。
  • 3. 勿催片。请相信骡友们对分享是富有激情的,如果确有更新版本,您一定能搜索到。
  • 4. 请勿到处挖坑绊人、招贴广告。即占空间让人厌烦,又没人会搭理,于人于己都无利。
  • 如果您发现自己的评论不见了,请参考以上4条。

推荐资源

  • [MKV] 阿姨 My Aunt 2016 全版
点击复制本页面地址给QQ/MSN/Gtalk好友

楼主信息...
更多
你可能喜欢的
关于我们 / 人才招募 / 商务合作 / 版权声明 / / 快手排行榜
分享资源 | 请在遵循创作共用的约定下使用本站内容
©2006-2012 QvoCD.ORG Inc. All rights Reserved.