《留给女儿的日记》(Napló gyermekeimnek)1984[MKV/1.82G/内嵌中字]


总分0.0
  • 评分:0人参与评分
  • 分级: 资源
  • 类型:欧美电影
  • 格式:[MKV]
  • 发行时间:1984年
  • 地区/语言:匈牙利(其他)
  • 统计:995次 浏览
  • 时间:2017-01-14 20:39:50发布 | 2017-01-14 20:39:50更新

电骡资源

简介

http://www.imdb.com/title/tt0084388/    (7.3/10 from 284 users) 



【BT磁力】  (待做种)

magnet:?xt=urn:btih:f02cf5b0c67e81b30f57bcd6e37c38854d21be17


【百度网盘】 http://pan.baidu.com/s/1eSiMb78



留给女儿的日记 Napló gyermekeimnek (1984)


导演: 玛特·美莎露丝
编剧: Balázs Fakan / 玛特·美莎露丝
类型: 剧情 / 传记
制片国家/地区: 匈牙利
语言: 匈牙利语
上映日期: 1984-05-03
片长: 106 分钟
又名: 私人日记 / 给我孩子的日记 / Diary for My Children
剧情:
  1947年的一天,一批逃往苏联的匈牙利地下党员乘飞机回到布达佩斯,十几岁的小姑娘尤莉也在其中。她父亲,一位著名的雕塑家在苏联30年代大清洗时被捕,杳无音讯。母亲是画家,会多国语言,常带尤莉去看电影,但在尤莉很小的时侯就去世了。尤莉随祖父母回国,住在姑妈玛格达家里。玛格达过去是地下党员,战后是一家报纸的主编,她的公寓华丽而舒适。尤莉在特权阶层子女才能上的学校念书,姑母要收她为养女。但尤莉不同意,她不喜欢玛格达。她逃学去看电影,想念过去的生活,想念父母。尤莉很喜坎姑母的老战友贾诺什,老布尔什维克,大工厂的总工程师。贾诺什的妻子和女儿在一次空袭中被炸死,儿子成了残废。他也很关心尤莉。玛格达后来当了监狱长,积极参与1949年开始的大清洗运动,贾诺什突然失踪了。尤莉决定离开玛格达,到一家工厂当工人。1953年她去监狱探望了贾诺什,她示意将和他的儿子一起等着他自由归来。


     这部斯大林时期的自传体电影《给我孩子的日记》,用50年代的新闻片连续镜头和片断描绘了那个年代复杂的个人和政治景象。在西方被禁止发行两年后,还是在1984年嘎纳电影节上获得了评委特别奖。



【截图】http://pic.yupoo.com/appcht/G9lQCCLD/wRAU7.jpg



General
Unique ID                      : 168348648403719580577546155723716462494 (0x7EA6C532C2870C1E037BA147C20E879E)
Complete name                  : [匈牙利剧情传记][留给女儿的日记 Napló gyermekeimnek(1984)][MKV-1.82G][中文字幕][768x576].mkv
Format                         : Matroska
Format version                 : Version 2
File size                      : 1.82 GiB
Duration                       : 1h 42mn
Overall bit rate               : 2 550 Kbps
Writing application            : Lavf51.12.1
Writing library                : Lavf51.12.1

Video
ID                             : 1
Format                         : AVC
Format/Info                    : Advanced Video Codec
Format profile                 : Baseline@L3.1
Format settings, CABAC         : No
Format settings, ReFrames      : 1 frame
Format settings, GOP           : M=1, N=12
Codec ID                       : V_MPEG4/ISO/AVC
Duration                       : 1h 42mn
Bit rate                       : 2 371 Kbps
Width                          : 768 pixels
Height                         : 576 pixels
Display aspect ratio           : 4:3
Frame rate mode                : Constant
Frame rate                     : 23.976 fps
Color space                    : YUV
Chroma subsampling             : 4:2:0
Bit depth                      : 8 bits
Scan type                      : Progressive
Bits/(Pixel*Frame)             : 0.224
Stream size                    : 1.70 GiB (93%)
Default                        : Yes
Forced                         : No

Audio
ID                             : 2
Format                         : MPEG Audio
Format version                 : Version 1
Format profile                 : Layer 2
Codec ID                       : A_MPEG/L2
Codec ID/Hint                  : MP2
Duration                       : 1h 42mn
Bit rate mode                  : Constant
Bit rate                       : 128 Kbps
Channel(s)                     : 2 channels
Sampling rate                  : 44.1 KHz
Compression mode               : Lossy
Stream size                    : 93.7 MiB (5%)
Default                        : Yes
Forced                         : No




[匈牙利剧情传记][留给女儿的日记 Napló gyermekeimnek(1984)][MKV-1.82G][中文字幕][768x576].mkv
File size: 1.82 GB
CRC32: 9d43b6be
MD5: 67264c292ece792432dad2ff8b3734fd
SHA1: 1986efb8936c20e594ddeb8e1c396a0f1e3ffb92
ED2K: 9b831510701ce306a8e61cd9ffb5d214



楼主最新资源

资源评论

我要评论

资源评分: 很好 不错 一般 较差 很差
  • 小贴士:

  • 1. 类似“顶”、“沙发”之类没有营养的文字,对勤劳贡献的楼主来说是令人沮丧的反馈信息。
  • 2. 提问之前请再仔细看一遍楼主的说明,或许是您遗漏了。
  • 3. 勿催片。请相信骡友们对分享是富有激情的,如果确有更新版本,您一定能搜索到。
  • 4. 请勿到处挖坑绊人、招贴广告。即占空间让人厌烦,又没人会搭理,于人于己都无利。
  • 如果您发现自己的评论不见了,请参考以上4条。

推荐资源

点击复制本页面地址给QQ/MSN/Gtalk好友

楼主信息...
更多
你可能喜欢的
关于我们 / 人才招募 / 商务合作 / 版权声明 / / 快手排行榜
分享资源 | 请在遵循创作共用的约定下使用本站内容
©2006-2012 QvoCD.ORG Inc. All rights Reserved.