《黑衣女人的香水》(Il Profumo della signora in nero)1974[MP4/846MB/英语配音中字/第一流氓@18p2p 压制]


总分0.0
  • 评分:0人参与评分
  • 分级: 资源
  • 类型:欧美电影
  • 格式:[MP4]
  • 发行时间:1974年
  • 地区/语言:意大利(英语)
  • 统计:711次 浏览
  • 时间:2017-01-10 19:52:41发布 | 2017-01-10 19:52:41更新

电骡资源

简介

http://www.imdb.com/title/tt0070565/   (6.8/10 from 1,337 users)



【BT磁力】 

magnet:?xt=urn:btih:d9fc32bee494ddc54c35520328ca90dc1fb7c42b


【百度网盘】 http://pan.baidu.com/s/1skBpzcx



黑衣女人的香水 Il Profumo della signora in nero (1974)


导演: Francesco Barilli
编剧: Francesco Barilli
主演: Mimsy Farmer / Maurizio Bonuglia
类型: 悬疑 / 惊悚 / 恐怖
制片国家/地区: 意大利
语言: 意大利语
上映日期: 1974-03-29
片长: Italy: 101 分钟
又名: The Perfume of the Lady in Black / 黑衣女人的香气

剧情:
  新婚不久的玛蒂尔德和罗贝尔到他们的朋友艾迪特和亚瑟·朗斯的古堡中度假。不料玛蒂尔德的前夫拉桑出现,吓坏了玛蒂尔德。鲁尔塔比伊在圣克莱的协助下展开调查,以揭开拉桑的真面目。

http://movie.mtime.com/45862/



【截图】http://pic.yupoo.com/appcht/G8KwhSz1/uKugN.jpg



General
Complete name                  : [意大利惊悚][黑衣女人的香水 Il Profumo della signora in nero(1974)][MP4-846MB][英语中字][第一流氓@18p2p].mp4
Format                         : MPEG-4
Format profile                 : Base Media / Version 2
Codec ID                       : mp42
File size                      : 847 MiB
Duration                       : 1h 39mn
Overall bit rate mode          : Variable
Overall bit rate               : 1 195 Kbps
Encoded date                   : UTC 2012-12-04 12:08:45
Tagged date                    : UTC 2012-12-04 12:12:23
Writing application            : mp4creator 1.6.1d

Video
ID                             : 1
Format                         : MPEG-4 Visual
Format profile                 : Simple@L1
Format settings, BVOP          : No
Format settings, QPel          : No
Format settings, GMC           : No warppoints
Format settings, Matrix        : Default (H.263)
Codec ID                       : 20
Duration                       : 1h 39mn
Bit rate mode                  : Variable
Bit rate                       : 1 067 Kbps
Maximum bit rate               : 8 963 Kbps
Width                          : 608 pixels
Height                         : 320 pixels
Display aspect ratio           : 1.900
Frame rate mode                : Constant
Frame rate                     : 25.000 fps
Color space                    : YUV
Chroma subsampling             : 4:2:0
Bit depth                      : 8 bits
Scan type                      : Progressive
Compression mode               : Lossy
Bits/(Pixel*Frame)             : 0.219
Stream size                    : 756 MiB (89%)
Language                       : English
Encoded date                   : UTC 2012-12-04 12:08:45
Tagged date                    : UTC 2012-12-04 12:11:24

Audio
ID                             : 2
Format                         : AAC
Format/Info                    : Advanced Audio Codec
Format profile                 : LC
Codec ID                       : 40
Duration                       : 1h 39mn
Source duration                : 1h 39mn
Bit rate mode                  : Variable
Bit rate                       : 126 Kbps
Maximum bit rate               : 160 Kbps
Channel(s)                     : 2 channels
Channel positions              : Front: L R
Sampling rate                  : 44.1 KHz
Compression mode               : Lossy
Stream size                    : 88.9 MiB (11%)
Source stream size             : 89.0 MiB (11%)
Language                       : English
Encoded date                   : UTC 2012-12-04 12:11:25
Tagged date                    : UTC 2012-12-04 12:12:23



楼主最新资源

资源评论

我要评论

资源评分: 很好 不错 一般 较差 很差
  • 小贴士:

  • 1. 类似“顶”、“沙发”之类没有营养的文字,对勤劳贡献的楼主来说是令人沮丧的反馈信息。
  • 2. 提问之前请再仔细看一遍楼主的说明,或许是您遗漏了。
  • 3. 勿催片。请相信骡友们对分享是富有激情的,如果确有更新版本,您一定能搜索到。
  • 4. 请勿到处挖坑绊人、招贴广告。即占空间让人厌烦,又没人会搭理,于人于己都无利。
  • 如果您发现自己的评论不见了,请参考以上4条。

推荐资源

点击复制本页面地址给QQ/MSN/Gtalk好友

楼主信息...
更多
你可能喜欢的
关于我们 / 人才招募 / 商务合作 / 版权声明 / / 快手排行榜
分享资源 | 请在遵循创作共用的约定下使用本站内容
©2006-2012 QvoCD.ORG Inc. All rights Reserved.